萌の领域

【电影】拆弹专家2 Shock Wave 2 2020 WEB-DL 1080p H264 AAC【115/17.24 GB】

动画, 电影丨电视剧丨特摄 搬运工 - 6
《拆弹专家2》是由寰宇娱乐有限公司、阿里巴巴影业(北京)有限公司联合出品,邱礼涛执导,刘德华、刘青云、倪妮、谢君豪、姜皓文等人主演的动作犯罪电影,于2020年12月24日在中国内地上映。影片讲述了邪恶组织“复生会”要对香港造成恐怖袭击,前拆弹专家潘乘风也因一场爆炸案被警方怀疑牵涉其中,潘乘风只能一边逃亡一边查明事情真相的故事。 最后编辑由 龙姐

◎译  名 Shock Wave 2
◎片  名 拆弹专家2
◎年  代 2020
◎产  地 中国大陆 / 中国香港
◎类  别 动作 / 犯罪
◎语  言 汉语普通话 / 粤语
◎上映日期 2020-12-24(中国大陆)
◎IMDb评分  7.5/10 from 147 users
◎IMDb链接  https://www.imdb.com/title/tt9597838
◎豆瓣评分 7.9/10 from 172434 users
◎豆瓣链接 https://movie.douban.com/subject/30171424/
◎片  长 121分钟
◎导  演 邱礼涛 Herman Yau
◎编  剧 邱礼涛 Herman Yau / 李敏 Erica Lee / 李昇 Eric Lee
◎主  演 刘德华 Andy Lau
 刘青云 Sean Lau
 倪妮 Ni Ni
 谢君豪 Kwan-Ho Tse
 姜皓文 Philip Keung Ho-Man
 吴卓羲 Ron Ng
 马浴柯 Marc Ma
 黄德斌 Tak-bun Wong
 郑子诚 Tse-sing Cheng
 洪天明 Timmy Hung Tin-Ming
 袁富华 Fu-wah Yuen
 刘浩龙 Wilfred Lau
 凌文龙 Man-Lung Ling
 赵永洪 Raymond Chiu
 蔡瀚亿 Babyjohn Choi
 张竣杰 Chun Kit Chang
 张扬
 安吉·阿维斯塔 Angie Aveestar

◎标  签 香港 | 警匪 | 犯罪 | 动作 | 2020 | 剧情 | 电影 | 华语

◎简  介  

香港某处发生爆炸案,前拆弹专家潘乘风(刘德华 饰)因昏迷于现场,被警方怀疑牵涉其中。苏醒后的潘乘风只能一边逃亡一边查明真相,然而,他的好友董卓文(刘青云 饰)和他的前女友庞玲(倪妮 饰)却给他讲述了两段截然不同的经历。有计划的爆炸案接二连三发生,真相却越来越扑朔迷离……

INFO

General
Complete name                            : Shock.Wave.2.2020.WEB-DL.1080p.H264.AAC.mp4
Format                                   : MPEG-4
Format profile                           : Base Media
Codec ID                                 : isom (isom/iso2/avc1/mp41)
File size                                : 17.2 GiB
Duration                                 : 2 h 1 min
Overall bit rate mode                    : Constant
Overall bit rate                         : 20.4 Mb/s
Writing application                      : Lavf58.42.101

Video
ID                                       : 1
Format                                   : AVC
Format/Info                              : Advanced Video Codec
Format profile                           : High@L4
Format settings                          : CABAC / 2 Ref Frames
Format settings, CABAC                   : Yes
Format settings, Reference frames        : 2 frames
Format settings, GOP                     : M=1, N=50
Codec ID                                 : avc1
Codec ID/Info                            : Advanced Video Coding
Duration                                 : 2 h 1 min
Bit rate mode                            : Constant
Bit rate                                 : 20.0 Mb/s
Width                                    : 1 920 pixels
Height                                   : 1 080 pixels
Display aspect ratio                     : 16:9
Frame rate mode                          : Constant
Frame rate                               : 24.000 FPS
Color space                              : YUV
Chroma subsampling                       : 4:2:0
Bit depth                                : 8 bits
Scan type                                : Progressive
Bits/(Pixel*Frame)                       : 0.402
Stream size                              : 16.9 GiB (98%)
Color range                              : Limited
Color primaries                          : BT.709
Transfer characteristics                 : BT.709
Matrix coefficients                      : BT.709
Codec configuration box                  : avcC

Audio
ID                                       : 2
Format                                   : AAC LC
Format/Info                              : Advanced Audio Codec Low Complexity
Codec ID                                 : mp4a-40-2
Duration                                 : 2 h 1 min
Bit rate mode                            : Constant
Bit rate                                 : 384 kb/s
Channel(s)                               : 2 channels
Channel layout                           : L R
Sampling rate                            : 48.0 kHz
Frame rate                               : 46.875 FPS (1024 SPF)
Compression mode                         : Lossy
Stream size                              : 333 MiB (2%)
Default                                  : Yes
Alternate group                          : 1

Screens

Shock.Wave.2.2020.WEB-DL.1080p.H264.AAC.mp4.jpg

  • 萌の领域是一个和谐有爱的ACG文化交流圈,这里是众多二次元文化爱好者的集结地。
  • 本作品是由 萌の领域 会员 搬运工 的搬运作品。
  • 来源:不详,作者:不详
  • 如资源链接失效,请点击上方举报,等待管理员处理。超过两个星期以上的资源,默认不补档,请考虑是否要点击下载。
  • 下载之前请查看评论,如果有人提示资源已失效请不要点击下载浪费萌币,也不要说作者骗币,下载消耗的萌币是被服务器回收了。

© 2019 - 2021 💝 IMOE.ORG